<?xml version="1.0" standalone="no"?>
<!DOCTYPE svg PUBLIC "-//W3C//DTD SVG 1.1//EN" "http://www.w3.org/Graphics/SVG/1.1/DTD/svg11.dtd">
<svg xmlns="http://www.w3.org/2000/svg">
<defs >
<font id="RedHatText" horiz-adv-x="523" ><font-face
    font-family="Red Hat Text"
    units-per-em="1000"
    panose-1="2 1 3 3 4 2 1 13 3 3"
    ascent="1018"
    descent="-305"
    alphabetic="0" />
<glyph unicode=" " horiz-adv-x="233" />
<glyph unicode="!" horiz-adv-x="215" d="M67 205L172 727H246L124 205H67ZM58 -8Q38 -8 25 6T11 40Q11 63 28 80T69 98Q89 98 102 85T115 51Q115 36 107 23T86 1T58 -8Z" />
<glyph unicode="&quot;" horiz-adv-x="354" d="M129 530L162 750H234L180 530H129ZM272 530L305 750H377L323 530H272Z" />
<glyph unicode="#" horiz-adv-x="675" d="M-8 0L112 219H18L30 277H144L224 423H108L121 481H256L376 700H443L323 481H504L624 700H690L570 481H664L651 423H538L458 277H573L561 219H426L306 0H240L360 219H178L58 0H-8ZM210 277H392L472 423H291L210 277Z" />
<glyph unicode="$" horiz-adv-x="538" d="M175 -67L195 25Q100 41 21 117L63 167Q98 134 134 114T208 86L260 331L216 347Q163 368 133 407T102 493Q102 582 165 631T334 681L352 767H400L381 676Q425 667 466 645T543 587L497 539Q468 568 436 588T368 615L319
384L356 370Q423 344 454 308T485 222Q485 160 454 115T368 45T241 20L223 -67H175ZM273 397L321 621Q251 621 210 589T169 502Q169 471 188 447T243 408L273 397ZM255 82Q303 82 340 98T397 143T418 210Q418 243 396 266T327 309L305 318L255 82Z" />
<glyph unicode="%" horiz-adv-x="761" d="M208 345Q151 345 117 382T83 483Q83 544 106 594T169 674T255 705Q312 705 346 668T380 567Q380 506 357 456T294 376T208 345ZM213 391Q245 391 272 415T315 479T331 566Q331 610 309 635T249 660Q218 660 191 636T148
572T132 485Q132 441 154 416T213 391ZM107 0L641 700H698L161 0H107ZM547 -5Q490 -5 456 32T422 133Q422 194 445 244T508 324T594 355Q651 355 685 318T719 217Q719 157 696 107T633 26T547 -5ZM552 41Q584 41 611 65T654 129T670 216Q670 260 648 285T588 310Q557
310 530 286T487 222T471 135Q471 91 493 66T552 41Z" />
<glyph unicode="&amp;" horiz-adv-x="656" d="M596 39L547 -11Q525 7 503 28T458 73Q362 -11 242 -11Q176 -11 126 12T49 75T21 171Q21 219 39 257T101 329T220 398Q201 436 193 465T185 526Q185 579 209 621T274 687T367 711Q410 711 443 695T494 649T513 582Q513
527 479 485T367 404L311 376Q346 321 385 269T465 170Q497 208 524 254T572 353L637 335Q611 272 579 220T507 124Q530 101 552 80T596 39ZM253 531Q253 506 260 482T285 426L346 456Q396 481 419 509T443 573Q443 609 421 631T362 653Q315 653 284 619T253 531ZM92
184Q92 124 135 88T249 51Q294 51 336 68T417 118Q376 165 335 221T248 347Q160 308 126 270T92 184Z" />
<glyph unicode="&apos;" horiz-adv-x="209" d="M129 530L162 750H234L180 530H129Z" />
<glyph unicode="(" horiz-adv-x="393" d="M210 -216Q136 -155 99 -66T61 137Q61 262 102 374T220 573T399 711L427 657Q361 626 307 573T213 451T152 305T130 143Q130 -65 258 -170L210 -216Z" />
<glyph unicode=")" horiz-adv-x="393" d="M182 711Q256 650 293 561T331 358Q331 234 290 122T173 -78T-7 -216L-35 -162Q31 -130 85 -77T179 44T240 191T262 352Q262 560 134 665L182 711Z" />
<glyph unicode="*" horiz-adv-x="446" d="M216 341L248 480L124 414L104 463L235 528L138 607L173 648L266 568L292 700H342L314 569L434 631L455 584L325 520L425 440L388 398L295 478L267 341H216Z" />
<glyph unicode="+" horiz-adv-x="599" d="M247 145L286 326H119L132 386H298L337 567H399L360 386H527L514 326H348L309 145H247Z" />
<glyph unicode="," horiz-adv-x="250" d="M-39 -157L65 74H143L18 -157H-39Z" />
<glyph unicode="-" horiz-adv-x="447" d="M59 250L74 313H399L385 250H59Z" />
<glyph unicode="." horiz-adv-x="250" d="M76 -8Q56 -8 43 6T29 41Q29 57 37 70T58 92T87 101Q107 101 120 87T133 52Q133 37 125 23T104 1T76 -8Z" />
<glyph unicode="/" horiz-adv-x="460" d="M-145 -209L438 700H514L-70 -209H-145Z" />
<glyph unicode="0" horiz-adv-x="654" d="M394 711Q464 711 516 677T596 582T625 437Q625 346 600 265T529 122T426 25T302 -11Q232 -11 180 23T100 118T71 263Q71 353 96 434T167 577T270 675T394 711ZM385 647Q336 647 293 617T216 533T163 410T143 262Q143
165 188 109T311 53Q360 53 403 83T480 167T533 290T553 438Q553 536 509 591T385 647Z" />
<glyph unicode="1" horiz-adv-x="301" d="M97 0L228 622L108 572L122 638L272 700H316L167 0H97Z" />
<glyph unicode="2" horiz-adv-x="538" d="M252 0L263 53L638 395Q680 433 700 469T720 543Q720 589 684 618T590 647Q546 647 504 629T405 568L374 621Q436 666 491 688T603 711Q659 711 701 691T767 635T791 552Q791 498 766 454T680 355L358 62L706 63L693 0H252Z" />
<glyph unicode="3" horiz-adv-x="574" d="M510 -11Q434 -11 374 20T266 111L320 155Q362 100 410 76T517 52Q568 52 606 71T666 123T688 200Q688 236 671 265T621 310T544 327H485L498 389H578Q620 389 654 407T709 456T730 524Q730 574 693 610T584 647Q534 647
493 632T408 580L370 630Q414 670 468 690T585 711Q656 711 704 687T778 622T803 535Q803 475 766 426T646 351Q699 333 729 293T759 204Q759 142 727 93T639 17T510 -11Z" />
<glyph unicode="4" horiz-adv-x="606" d="M354 0L394 187H24L37 244L498 700H573L477 250H573L559 187H464L424 0H354ZM123 250H407L483 607L123 250Z" />
<glyph unicode="5" horiz-adv-x="559" d="M497 -11Q424 -11 363 18T263 100L312 146Q350 97 396 74T501 51Q555 51 597 75T663 140T688 233Q688 299 646 336T529 374Q498 374 465 367T392 342L347 363L432 700H825L811 637H480L420 404Q455 419 486 425T551 432Q616
432 663 409T735 343T761 240Q761 188 741 143T684 63T600 9T497 -11Z" />
<glyph unicode="6" horiz-adv-x="611" d="M312 -11Q248 -11 193 22T104 120T70 275Q70 376 97 456T172 593T282 680T414 711Q471 711 516 695T601 647L561 588Q524 618 488 632T415 646Q347 646 290 609T194 503T144 342Q186 389 237 414T346 439Q411 439 460
412T536 339T563 235Q563 179 543 134T488 57T408 7T312 -11ZM321 53Q369 53 407 76T468 141T491 234Q491 299 449 339T333 380Q281 380 231 356T141 289Q141 213 164 161T228 81T321 53Z" />
<glyph unicode="7" horiz-adv-x="547" d="M298 0L781 637H362L376 700H875L863 644L382 0H298Z" />
<glyph unicode="8" horiz-adv-x="602" d="M283 -10Q212 -10 158 15T73 84T43 181Q43 229 66 269T133 338T234 378Q186 398 161 435T136 517Q136 576 168 619T253 687T369 711Q437 711 483 688T554 625T579 541Q579 497 560 461T503 399T415 360Q470 338 504 295T539
197Q539 135 504 89T411 16T283 -10ZM352 399Q395 399 430 417T487 466T509 536Q509 586 474 619T363 653Q320 653 285 635T228 587T206 516Q206 467 245 433T352 399ZM289 47Q369 47 418 89T467 197Q467 236 446 267T387 318T296 337Q214 337 165 296T115 189Q115
150 136 118T196 67T289 47Z" />
<glyph unicode="9" horiz-adv-x="608" d="M333 711Q397 711 452 678T541 580T575 425Q575 325 548 244T473 107T363 20T231 -11Q174 -11 130 5T44 53L84 112Q122 82 157 68T230 54Q298 54 355 91T452 197T501 358Q459 312 408 287T299 261Q234 261 185 288T109
361T82 465Q82 521 102 566T157 643T237 693T333 711ZM324 647Q276 647 238 624T177 559T154 466Q154 401 196 361T312 320Q365 320 415 344T504 411Q504 487 481 539T417 619T324 647Z" />
<glyph unicode=":" horiz-adv-x="250" d="M76 -8Q56 -8 43 6T29 41Q29 57 37 70T58 92T87 101Q107 101 120 87T133 52Q133 37 125 23T104 1T76 -8ZM161 389Q141 389 128 403T114 438Q114 454 122 467T143 489T172 498Q192 498 205 484T218 449Q218 434 210 420T189
398T161 389Z" />
<glyph unicode=";" horiz-adv-x="250" d="M169 389Q149 389 136 403T122 438Q122 454 130 467T151 489T180 498Q200 498 213 484T226 449Q226 434 218 420T197 398T169 389ZM-39 -157L65 74H143L18 -157H-39Z" />
<glyph unicode="&lt;" horiz-adv-x="599" d="M408 103L143 349L503 594L535 542L237 343L452 148L408 103Z" />
<glyph unicode="=" horiz-adv-x="600" d="M358 501L371 561H765L752 501H358ZM137 408L150 468H544L531 408H137Z" />
<glyph unicode="&gt;" horiz-adv-x="600" d="M236 594L501 348L141 103L109 155L407 354L192 549L236 594Z" />
<glyph unicode="?" horiz-adv-x="501" d="M172 -8Q152 -8 139 6T126 40Q126 63 143 80T184 98Q204 98 216 85T229 51Q229 36 221 23T200 1T172 -8ZM177 207Q188 273 214 314T293 385L355 421Q396 446 418 478T440 545Q440 587 406 614T317 641Q274 641 232 621T152
562L107 603Q155 653 212 680T327 707Q382 707 423 688T487 634T511 554Q511 499 481 455T385 371L326 336Q286 313 266 283T238 207H177Z" />
<glyph unicode="@" horiz-adv-x="763" d="M393 -144Q320 -144 258 -118T150 -44T78 68T52 207Q52 286 77 353T148 471T255 548T389 576Q457 576 515 553T616 489T683 391T707 269Q707 208 685 160T625 83T539 55Q475 55 450 96Q426 74 401 63T349 51Q310 51 279
71T230 125T212 202Q212 251 234 291T292 355T374 379Q402 379 427 369T469 340L474 366H529L491 174Q484 138 498 119T544 99Q578 99 604 121T645 181T661 267Q661 343 625 403T528 497T387 532Q326 532 274 508T182 439T120 336T98 209Q98 120 136 51T242 -59T396
-99Q485 -99 558 -58L575 -99Q534 -121 489 -132T393 -144ZM360 98Q403 98 437 134Q436 144 436 155T439 179L459 285Q446 307 423 319T372 331Q343 331 319 314T281 269T266 206Q266 158 292 128T360 98Z" />
<glyph unicode="A" horiz-adv-x="647" d="M-44 0L372 700H463L585 0H508L472 220H168L41 0H-44ZM203 281H462L404 631L203 281Z" />
<glyph unicode="B" horiz-adv-x="656" d="M34 0L183 700H442Q499 700 540 682T604 628T627 545Q627 477 585 427T474 359Q528 343 558 307T589 217Q589 155 557 106T469 28T341 0H34ZM193 394H395Q464 394 507 432T550 532Q550 579 518 606T429 634H244L193 394ZM123
66H340Q391 66 430 85T491 139T513 218Q513 271 477 301T377 331H179L123 66Z" />
<glyph unicode="C" horiz-adv-x="713" d="M401 -11Q332 -11 273 14T169 83T101 188T76 320Q76 400 105 470T186 595T306 679T451 710Q534 710 600 678T710 584L653 534Q621 584 567 612T447 640Q386 640 333 616T239 548T176 447T153 323Q153 247 186 187T276
93T406 58Q465 58 520 81T619 147L659 95Q604 44 537 17T401 -11Z" />
<glyph unicode="D" horiz-adv-x="717" d="M34 0L183 700H382Q472 700 539 662T643 554T681 391Q681 310 651 240T567 115T443 31T291 0H34ZM379 631H243L124 69H302Q365 69 419 93T515 162T579 264T603 389Q603 462 575 516T497 600T379 631Z" />
<glyph unicode="E" horiz-adv-x="607" d="M34 0L183 700H651L636 633H244L191 387H464L450 320H177L123 67H520L506 0H34Z" />
<glyph unicode="F" horiz-adv-x="598" d="M34 0L183 700H651L636 633H244L190 382H459L445 315H176L109 0H34Z" />
<glyph unicode="G" horiz-adv-x="785" d="M394 -10Q326 -10 268 15T166 85T98 190T73 321Q73 401 102 471T184 596T304 680T448 711Q535 711 605 678T723 579L664 529Q630 582 571 611T443 641Q382 641 329 617T236 548T172 447T149 323Q149 247 181 188T271 94T399
59Q464 59 519 89T612 174T664 298H433L444 366H752L743 314Q727 220 677 147T554 32T394 -10Z" />
<glyph unicode="H" horiz-adv-x="717" d="M32 0L181 700H257L190 387H584L651 700H727L578 0H502L570 318H176L108 0H32Z" />
<glyph unicode="I" horiz-adv-x="247" d="M32 0L181 700H256L107 0H32Z" />
<glyph unicode="J" horiz-adv-x="588" d="M235 -11Q147 -11 88 37T11 171L79 196Q93 128 132 94T235 59Q312 59 366 113T441 264L534 700H610L516 257Q498 171 459 111T364 20T235 -11Z" />
<glyph unicode="K" horiz-adv-x="597" d="M34 0L183 700H258L189 378L588 700H689L263 357L544 0H449L182 344L109 0H34Z" />
<glyph unicode="L" horiz-adv-x="595" d="M34 0L183 700H258L123 68H510L496 0H34Z" />
<glyph unicode="M" horiz-adv-x="844" d="M34 0L183 700H284L409 201L743 700H851L702 0H632L761 609L380 50L235 612L105 0H34Z" />
<glyph unicode="N" horiz-adv-x="725" d="M34 0L182 700H260L540 113L661 700H732L584 0H516L229 599L105 0H34Z" />
<glyph unicode="O" horiz-adv-x="795" d="M392 -11Q325 -11 267 14T166 84T99 189T75 320Q75 400 104 470T183 595T300 680T442 711Q510 711 567 686T668 616T735 511T759 380Q759 300 730 230T651 105T534 20T392 -11ZM397 59Q456 59 507 84T598 152T660 253T683
376Q683 452 651 512T564 606T438 641Q379 641 327 616T236 548T174 447T151 324Q151 249 183 189T271 94T397 59Z" />
<glyph unicode="P" horiz-adv-x="641" d="M34 0L183 700H445Q506 700 550 678T618 616T642 520Q642 452 611 399T524 316T397 286H170L109 0H34ZM184 352H394Q445 352 484 372T545 430T567 515Q567 570 531 601T432 632H244L184 352Z" />
<glyph unicode="Q" horiz-adv-x="795" d="M599 -26L562 35Q524 13 481 1T392 -11Q325 -11 267 14T166 84T99 189T75 320Q75 400 104 470T183 595T300 680T442 711Q510 711 567 686T668 616T735 511T759 380Q759 288 721 208T618 74L676 -21L599 -26ZM397 59Q432
59 464 68T526 94L448 222L524 226L581 134Q628 178 655 240T683 376Q683 452 651 512T564 606T438 641Q379 641 327 616T236 548T174 447T151 324Q151 249 183 189T271 94T397 59Z" />
<glyph unicode="R" horiz-adv-x="634" d="M34 0L183 700H446Q506 700 549 679T616 617T640 523Q640 467 616 421T550 345T451 304L542 0H463L375 299H173L109 0H34ZM186 363H397Q446 363 484 383T543 438T565 518Q565 571 530 601T435 632H244L186 363Z" />
<glyph unicode="S" horiz-adv-x="612" d="M306 -10Q224 -10 151 25T17 131L68 183Q128 118 186 86T308 54Q361 54 402 72T467 124T491 198Q491 242 461 268T356 315L249 342Q171 362 132 405T92 511Q92 571 122 615T206 684T333 709Q413 709 485 681T612 599L564
544Q515 592 455 618T330 644Q256 644 211 611T166 521Q166 478 194 451T280 408L385 382Q480 356 523 315T566 209Q566 144 533 95T442 18T306 -10Z" />
<glyph unicode="T" horiz-adv-x="605" d="M211 0L346 632H108L123 700H671L656 632H421L286 0H211Z" />
<glyph unicode="U" horiz-adv-x="698" d="M322 -11Q232 -11 172 29T89 140T85 303L169 700H245L159 299Q144 229 160 175T219 90T325 59Q411 59 472 121T557 293L644 700H719L631 289Q611 193 568 126T463 24T322 -11Z" />
<glyph unicode="V" horiz-adv-x="647" d="M227 0L105 700H181L285 72L651 700H733L318 0H227Z" />
<glyph unicode="W" horiz-adv-x="879" d="M136 0V700H210L206 124L497 700H570L618 124L857 700H934L637 0H560L512 594L212 0H136Z" />
<glyph unicode="X" horiz-adv-x="641" d="M-46 0L300 367L127 700H212L354 422L615 700H710L387 359L574 0H490L334 304L51 0H-46Z" />
<glyph unicode="Y" horiz-adv-x="633" d="M224 0L285 287L107 700H187L334 353L627 700H717L360 283L300 0H224Z" />
<glyph unicode="Z" horiz-adv-x="593" d="M-17 0L-5 54L533 635L120 633L134 700H648L635 646L97 65L522 67L507 0H-17Z" />
<glyph unicode="[" horiz-adv-x="355" d="M-32 -215L163 700H399L386 640H219L50 -155H217L204 -215H-32Z" />
<glyph unicode="\" horiz-adv-x="413" d="M315 -209L115 700H184L384 -209H315Z" />
<glyph unicode="]" horiz-adv-x="355" d="M382 700L187 -215H-49L-36 -155H131L300 640H133L146 700H382Z" />
<glyph unicode="^" horiz-adv-x="600" d="M117 350L366 700H429L527 350H466L386 634L186 350H117Z" />
<glyph unicode="_" horiz-adv-x="447" d="M-84 -137L-72 -80H378L366 -137H-84Z" />
<glyph unicode="`" horiz-adv-x="600" d="M344 584L202 706H302L411 584H344Z" />
<glyph unicode="a" horiz-adv-x="516" d="M191 -7Q118 -7 74 30T29 130Q29 177 52 212T118 267T216 287Q263 287 304 275T377 240L390 299Q405 367 377 401T279 435Q249 435 216 427T139 398L119 455Q167 475 209 485T292 495Q358 495 400 472T458 407T462 305L394
0H323L333 46Q299 19 264 6T191 -7ZM212 48Q248 48 280 60T345 98L366 191Q338 213 303 223T223 233Q168 233 133 206T98 138Q98 95 128 72T212 48Z" />
<glyph unicode="b" horiz-adv-x="571" d="M267 -8Q215 -8 175 14T109 78L92 0H21L172 722L246 737L183 433Q212 462 248 477T325 492Q381 492 425 463T494 385T520 271Q520 214 500 164T446 75T365 14T267 -8ZM258 56Q312 56 355 84T423 159T449 265Q449 339 408
384T299 430Q263 430 231 416T171 375L121 136Q140 100 177 78T258 56Z" />
<glyph unicode="c" horiz-adv-x="497" d="M261 -9Q201 -9 154 19T79 97T51 210Q51 268 72 319T129 410T214 471T316 494Q371 494 421 469T499 401L445 356Q422 391 388 409T313 428Q262 428 219 399T149 321T122 214Q122 169 142 133T196 76T272 55Q308 55 342
68T404 103L438 56Q400 24 354 8T261 -9Z" />
<glyph unicode="d" horiz-adv-x="571" d="M245 -7Q189 -7 145 22T76 101T51 214Q51 271 70 321T125 410T205 471T303 493Q353 493 392 473T458 415L521 722L595 737L442 0H371L381 46Q353 21 319 7T245 -7ZM271 56Q339 56 393 104L445 356Q426 389 390 409T312
429Q259 429 216 401T148 326T122 220Q122 147 163 102T271 56Z" />
<glyph unicode="e" horiz-adv-x="545" d="M273 -9Q208 -9 158 19T79 99T51 216Q51 274 70 324T124 413T204 474T302 496Q359 496 403 469T472 393T498 281Q498 268 498 255T495 228H121Q119 180 138 141T194 78T276 54Q311 54 345 65T405 97L443 45Q400 17 359
4T273 -9ZM128 280H430Q431 323 414 357T366 411T297 432Q257 432 223 413T164 359T128 280Z" />
<glyph unicode="f" horiz-adv-x="362" d="M80 0L171 428H66L80 488H184L209 605Q224 673 265 709T368 745Q390 745 409 742T444 731L431 666Q399 679 366 679Q329 679 309 661T280 599L256 488H395L381 428H243L152 0H80Z" />
<glyph unicode="g" horiz-adv-x="565" d="M231 -219Q178 -219 121 -199T22 -146L60 -93Q144 -155 227 -155Q281 -155 316 -127T362 -46L382 48Q354 22 320 8T246 -6Q190 -6 146 23T76 101T51 214Q51 271 70 321T125 410T205 471T303 493Q353 493 393 473T458 415L473
488H544L431 -52Q414 -133 363 -176T231 -219ZM271 56Q305 56 336 68T394 105L446 357Q426 390 390 409T312 429Q259 429 216 401T148 326T122 220Q122 147 163 102T271 56Z" />
<glyph unicode="h" horiz-adv-x="542" d="M21 0L171 722L246 737L179 411Q213 453 252 474T337 495Q392 495 429 470T480 401T482 300L418 0H346L408 285Q423 353 395 394T306 435Q266 435 230 416T168 361L93 0H21Z" />
<glyph unicode="i" horiz-adv-x="220" d="M189 608Q169 608 156 621T143 655Q143 670 151 683T172 705T200 713Q220 713 233 700T246 666Q246 643 229 626T189 608ZM21 0L128 488H199L93 0H21Z" />
<glyph unicode="j" horiz-adv-x="220" d="M189 608Q169 608 156 621T143 655Q143 670 151 683T172 705T200 713Q220 713 233 700T246 666Q246 643 229 626T189 608ZM-63 -219Q-76 -219 -90 -217T-115 -211L-101 -148Q-93 -151 -84 -152T-61 -154Q-34 -154 -19
-140T4 -93L128 488H200L73 -100Q61 -157 26 -188T-63 -219Z" />
<glyph unicode="k" horiz-adv-x="478" d="M21 0L173 722L247 737L150 273L421 488H517L213 250L415 0H330L142 236L93 0H21Z" />
<glyph unicode="l" horiz-adv-x="220" d="M21 0L172 722L246 737L93 0H21Z" />
<glyph unicode="m" horiz-adv-x="828" d="M21 0L128 488H199L183 413Q217 454 254 474T332 495Q384 495 418 468T465 396Q545 495 639 495Q689 495 722 471T768 403T769 306L703 0H632L696 298Q710 358 685 396T606 435Q570 435 537 416T470 354Q470 343 469 331T465
306L399 0H327L390 291Q404 355 379 395T301 435Q229 435 172 363L93 0H21Z" />
<glyph unicode="n" horiz-adv-x="542" d="M21 0L128 488H199L184 417Q216 456 255 475T337 495Q392 495 429 470T480 401T482 300L418 0H346L408 285Q423 353 395 394T306 435Q269 435 235 418T173 367L93 0H21Z" />
<glyph unicode="o" horiz-adv-x="570" d="M261 -10Q200 -10 153 19T78 100T51 218Q51 276 71 326T126 415T207 475T307 497Q370 497 417 468T491 388T518 269Q518 212 498 162T443 73T361 12T261 -10ZM265 55Q316 55 357 83T422 161T446 269Q446 342 407 387T304
433Q253 433 212 404T147 327T122 219Q122 146 161 101T265 55Z" />
<glyph unicode="p" horiz-adv-x="571" d="M-22 -209L128 488H198L187 436Q246 492 325 492Q381 492 425 463T494 385T520 271Q520 214 500 164T446 75T365 14T267 -8Q217 -8 177 13T111 74L50 -209H-22ZM299 430Q231 430 176 380L123 133Q142 99 178 78T258 56Q312
56 355 84T423 159T449 265Q449 339 408 384T299 430Z" />
<glyph unicode="q" horiz-adv-x="571" d="M327 -209L382 47Q354 21 320 7T245 -7Q189 -7 145 22T76 101T51 214Q51 271 70 321T125 410T205 471T303 493Q353 493 393 472T460 410L477 488H549L399 -209H327ZM271 56Q306 56 337 68T395 106L448 353Q429 387 393
408T312 429Q259 429 216 401T148 326T122 220Q122 147 163 102T271 56Z" />
<glyph unicode="r" horiz-adv-x="344" d="M19 0L126 488H198L178 399Q206 446 244 471T325 497Q354 497 376 488L361 422Q352 427 337 430T306 433Q266 433 230 410T166 342L91 0H19Z" />
<glyph unicode="s" horiz-adv-x="443" d="M204 -10Q145 -10 94 12T3 76L47 122Q91 81 126 65T205 49Q254 49 287 75T321 139Q321 165 305 180T247 208L170 228Q112 245 85 275T57 353Q57 417 105 457T229 497Q282 497 329 479T420 423L376 374Q340 404 301 420T225
437Q179 437 151 416T122 360Q122 333 138 317T192 290L270 268Q333 250 361 222T389 148Q389 103 365 68T299 11T204 -10Z" />
<glyph unicode="t" horiz-adv-x="371" d="M215 -9Q148 -9 119 23T103 117L169 428H71L85 488H182L210 622L287 639L254 488H392L378 428H241L177 133Q168 91 183 73T244 55Q256 55 267 57T300 65L286 0Q269 -4 251 -6T215 -9Z" />
<glyph unicode="u" horiz-adv-x="541" d="M203 -7Q149 -7 112 18T61 88T58 189L123 488H195L132 203Q117 136 145 95T234 53Q272 53 305 70T367 121L447 488H519L413 0H341L356 70Q323 32 285 13T203 -7Z" />
<glyph unicode="v" horiz-adv-x="491" d="M156 0L68 488H143L210 91L448 488H528L224 0H156Z" />
<glyph unicode="w" horiz-adv-x="684" d="M106 0L81 488H149L165 98L362 488H426L457 98L639 488H710L473 0H403L374 393L176 0H106Z" />
<glyph unicode="x" horiz-adv-x="477" d="M-43 0L200 257L79 488H159L251 304L421 488H507L279 249L409 0H330L229 199L45 0H-43Z" />
<glyph unicode="y" horiz-adv-x="489" d="M11 -219Q0 -219 -13 -217T-44 -209L-31 -144Q-17 -147 -7 -148T10 -150Q39 -150 60 -137T100 -93L152 -5L68 488H144L207 84L445 488H526L166 -117Q133 -172 97 -195T11 -219Z" />
<glyph unicode="z" horiz-adv-x="449" d="M-14 0L-2 58L347 422L82 421L95 488H456L444 431L94 65L367 66L353 0H-14Z" />
<glyph unicode="{" horiz-adv-x="386" d="M174 -219Q110 -219 80 -190T51 -113T86 -13L146 84Q169 120 171 150T157 199T106 218H32L45 279H119Q172 279 199 316T215 409L194 521Q184 575 200 618T252 686T340 711Q363 711 385 707T428 692L402 636Q387 644 370
647T340 651Q295 651 272 619T257 534L279 401Q285 364 273 331T235 276T172 244Q221 225 233 180T213 83L144 -34Q113 -84 123 -122T188 -160Q199 -160 210 -158T236 -152L237 -210Q218 -215 203 -217T174 -219Z" />
<glyph unicode="|" horiz-adv-x="285" d="M14 -209L206 700H272L79 -209H14Z" />
<glyph unicode="}" horiz-adv-x="386" d="M208 711Q272 711 302 682T331 605T296 505L236 408Q214 372 212 342T226 293T276 274H350L337 213H263Q211 213 184 176T167 83L188 -29Q198 -83 182 -126T130 -194T42 -219Q19 -219 -3 -215T-46 -200L-20 -144Q-5 -151
12 -155T42 -159Q87 -159 110 -127T125 -42L103 91Q97 129 109 161T147 217T212 248V247Q179 260 162 284T146 341T169 409L238 526Q269 576 260 614T194 652Q183 652 172 651T146 644L145 702Q164 707 179 709T208 711Z" />
<glyph unicode="~" horiz-adv-x="600" d="M140 312L86 325Q107 389 142 423T220 457Q240 457 261 450T315 421L378 379Q401 365 412 360T436 355Q462 355 482 376T517 439L570 426Q549 362 515 328T437 293Q415 293 395 301T341 330L278 372Q256 386 244 390T219
395Q194 395 174 374T140 312Z" />
<glyph unicode="&#xa0;" horiz-adv-x="233" />
<glyph unicode="&#xa1;" horiz-adv-x="214" d="M145 283L40 -239H-34L88 283H145ZM154 496Q174 496 187 482T201 448Q201 425 184 408T143 390Q123 390 110 404T97 437Q97 453 105 466T126 487T154 496Z" />
<glyph unicode="&#xa2;" horiz-adv-x="497" d="M182 -118L206 -2Q137 15 94 72T51 210Q51 268 72 319T129 410T212 471T312 494L336 609H385L360 490Q403 482 440 459T499 401L445 356Q426 384 401 401T346 425L267 55Q307 55 341 68T404 103L438 56Q398 22 351
7T253 -9L230 -118H182ZM221 64L297 427Q249 423 210 393T146 316T122 214Q122 161 150 121T221 64Z" />
<glyph unicode="&#xa3;" horiz-adv-x="606" d="M10 -18L-36 23Q30 102 113 102Q159 123 162 192L168 312H66L79 369H170L174 447Q178 528 205 587T279 678T390 711Q482 711 535 662T596 518L530 504Q526 576 490 612T387 649Q321 649 284 599T243 458L239 369H433L420
312H237L232 206Q229 126 182 92Q184 91 185 91T188 90L368 46Q413 35 446 44T507 88L553 49Q525 14 493 -3T422 -23T337 -14L159 31Q110 43 75 33T10 -18Z" />
<glyph unicode="&#xa4;" horiz-adv-x="681" d="M85 64L46 104L139 198Q114 231 100 273T85 361Q85 408 99 449T140 523L46 618L86 659L180 564Q213 591 254 606T341 621Q387 621 428 606T502 564L596 659L635 619L540 524Q566 491 581 450T596 361Q596 315 582
274T542 199L636 104L596 63L502 157Q469 130 428 115T341 100Q295 100 253 115T178 158L85 64ZM341 166Q392 166 433 192T499 262T523 361Q523 416 499 459T434 529T341 555Q290 555 249 529T183 460T158 361Q158 307 182 263T248 192T341 166Z" />
<glyph unicode="&#xa5;" horiz-adv-x="633" d="M224 0L252 134H81L92 188H264L280 263H109L119 317H272L107 700H187L334 353L627 700H717L389 317H540L530 263H356L340 188H513L502 134H328L300 0H224Z" />
<glyph unicode="&#xa6;" horiz-adv-x="278" d="M118 287L206 700H274L186 287H118ZM13 -209L101 204H169L81 -209H13Z" />
<glyph unicode="&#xa7;" horiz-adv-x="556" d="M241 -50Q193 -50 145 -32T57 18L96 67Q176 6 246 6Q288 6 313 28T338 87Q338 132 284 160L190 207Q135 236 111 265T87 335Q87 391 124 429T226 480Q190 515 190 566Q190 609 210 641T267 692T352 711Q399 711 447
693T535 643L496 594Q456 625 419 640T347 655Q305 655 280 633T254 574Q254 529 309 501L403 454Q459 426 482 397T506 327Q506 269 469 230T368 179Q403 145 403 95Q403 52 383 20T326 -31T241 -50ZM316 216Q372 218 407 245T442 313Q442 362 375 397L280 443Q224
442 188 416T151 349Q151 299 218 265L316 216Z" />
<glyph unicode="&#xa8;" horiz-adv-x="600" d="M280 609Q260 609 246 622T232 656Q232 678 249 694T289 711Q309 711 323 697T337 663Q337 641 321 625T280 609ZM484 609Q464 609 450 622T436 656Q436 678 453 694T493 711Q513 711 527 697T541 663Q541 641 525
625T484 609Z" />
<glyph unicode="&#xa9;" horiz-adv-x="784" d="M401 167Q358 167 324 188T269 245T249 328Q249 383 275 429T346 504T441 533Q483 533 520 514T577 462L535 426Q519 452 493 467T438 482Q402 482 372 461T322 406T303 332Q303 283 333 251T409 219Q452 219 499
254L522 212Q496 190 465 179T401 167ZM384 -11Q317 -11 260 13T161 80T96 182T73 311Q73 393 102 465T182 592T301 679T443 711Q510 711 567 687T666 619T731 516T754 386Q754 305 725 233T645 107T526 21T384 -11ZM384 31Q450 31 508 59T612 135T683 247T709
381Q709 464 674 529T579 631T440 668Q375 668 317 640T215 563T145 451T119 315Q119 234 153 170T248 68T384 31Z" />
<glyph unicode="&#xaa;" horiz-adv-x="400" d="M203 319Q145 319 110 348T75 425Q75 481 117 515T230 549Q295 549 348 517L357 559Q368 608 346 632T269 657Q247 657 221 651T157 629L141 677Q180 694 214 701T280 709Q359 709 395 670T417 562L366 325H307L313
355Q264 319 203 319ZM221 366Q278 366 324 403L338 471Q295 504 231 504Q188 504 161 484T134 431Q134 400 157 383T221 366Z" />
<glyph unicode="&#xab;" horiz-adv-x="625" d="M208 0L43 245L315 488H393L123 241L283 0H208ZM432 0L267 245L539 488H617L347 241L507 0H432Z" />
<glyph unicode="&#xac;" horiz-adv-x="601" d="M409 0L463 254H77L91 314H540L473 0H409Z" />
<glyph unicode="&#xad;" horiz-adv-x="447" d="M59 250L74 313H399L385 250H59Z" />
<glyph unicode="&#xae;" horiz-adv-x="486" d="M278 312Q230 312 192 335T133 397T111 488Q111 534 127 574T173 646T241 696T321 714Q370 714 407 691T466 629T488 538Q488 492 472 452T426 380T358 330T278 312ZM282 346Q329 346 367 372T429 441T452 536Q452
601 415 640T317 680Q271 680 232 654T170 585T147 490Q147 426 184 386T282 346ZM216 420L256 608H320Q346 608 359 595T373 555Q373 536 362 520T330 495L355 420H321L296 491H263L248 420H216ZM269 517H306Q322 517 331 526T340 552Q340 580 313 580H283L269
517Z" />
<glyph unicode="&#xaf;" horiz-adv-x="600" d="M238 611L249 663H517L506 611H238Z" />
<glyph unicode="&#xb0;" horiz-adv-x="398" d="M246 424Q212 424 184 439T139 482T122 541Q122 588 144 626T204 687T287 710Q321 710 349 695T394 653T411 593Q411 547 389 509T329 447T246 424ZM247 472Q279 472 304 487T345 528T361 585Q361 617 339 639T286
661Q255 661 229 646T188 605T172 548Q172 517 194 495T247 472Z" />
<glyph unicode="&#xb1;" horiz-adv-x="599" d="M50 -1L63 60H458L445 -1H50ZM255 173L292 349H124L138 409H305L342 585H402L365 409H532L518 349H352L315 173H255Z" />
<glyph unicode="&#xb2;" horiz-adv-x="286" d="M48 350L56 387L234 530Q260 550 272 569T284 608Q284 631 267 645T220 660Q198 660 177 651T127 622L105 659Q171 705 229 705Q276 705 305 681T335 617Q335 586 320 561T267 506L126 393H295L286 350H48Z" />
<glyph unicode="&#xb3;" horiz-adv-x="306" d="M184 345Q142 345 110 358T54 399L88 434Q130 390 187 390Q222 390 246 407T270 450Q270 476 252 490T201 505H170L178 546H206Q243 546 267 563T291 606Q291 629 273 644T226 659Q205 659 183 652T132 627L110 666Q172
705 233 705Q280 705 311 680T343 614Q343 583 318 559T253 526Q284 518 301 499T319 453Q319 423 301 399T253 360T184 345Z" />
<glyph unicode="&#xb4;" horiz-adv-x="600" d="M319 584L454 706H555L389 584H319Z" />
<glyph unicode="&#xb5;" horiz-adv-x="600" d="M0 -209L148 488H221L159 197Q146 131 174 92T260 52Q301 52 337 71T403 127L480 488H553L449 0H376L392 75Q358 34 317 13T230 -8Q196 -8 169 2T124 32L73 -209H0Z" />
<glyph unicode="&#xb6;" horiz-adv-x="639" d="M258 0L319 289H288Q232 289 190 311T125 374T102 468Q102 536 131 588T212 670T330 700H647L498 0H433L495 289H384L323 0H258ZM398 352H508L569 637H458L398 352ZM294 352H333L393 637H324Q279 637 244 617T189
560T169 476Q169 418 202 385T294 352Z" />
<glyph unicode="&#xb7;" horiz-adv-x="250" d="M125 229Q105 229 92 243T78 278Q78 294 86 307T107 329T136 338Q156 338 169 324T182 289Q182 274 174 260T153 238T125 229Z" />
<glyph unicode="&#xb8;" horiz-adv-x="600" d="M205 -239Q171 -239 144 -228T99 -197L130 -167Q159 -199 203 -199Q236 -199 255 -184T275 -144Q275 -123 258 -111T211 -99H183L227 0H269L240 -66Q278 -69 299 -89T321 -138Q321 -166 306 -189T264 -225T205 -239Z" />
<glyph unicode="&#xb9;" horiz-adv-x="162" d="M103 350L167 646L99 620L109 665L196 700H228L153 350H103Z" />
<glyph unicode="&#xba;" horiz-adv-x="455" d="M270 317Q219 317 179 340T115 405T92 498Q92 556 120 604T195 681T297 710Q348 710 388 687T451 622T474 529Q474 472 446 424T372 346T270 317ZM273 372Q312 372 344 393T395 449T414 526Q414 582 380 618T293
655Q255 655 223 634T172 578T152 501Q152 446 186 409T273 372Z" />
<glyph unicode="&#xbb;" horiz-adv-x="624" d="M416 488L581 243L309 0H231L501 247L341 488H416ZM193 488L358 243L86 0H8L278 247L118 488H193Z" />
<glyph unicode="&#xbc;" horiz-adv-x="603" d="M434 0L453 88H261L269 129L502 350H559L512 130H554L544 88H503L484 0H434ZM326 130H462L496 292L326 130ZM103 350L167 646L99 620L109 665L196 700H228L153 350H103ZM252 0L786 700H843L306 0H252Z" />
<glyph unicode="&#xbd;" horiz-adv-x="637" d="M103 350L167 646L99 620L109 665L196 700H228L153 350H103ZM247 0L781 700H838L301 0H247ZM320 0L328 37L506 180Q532 200 544 219T556 258Q556 281 539 295T492 310Q470 310 449 301T399 272L377 309Q443 355 501
355Q548 355 577 331T607 267Q607 236 592 211T539 156L398 43H567L558 0H320Z" />
<glyph unicode="&#xbe;" horiz-adv-x="697" d="M184 345Q142 345 110 358T54 399L88 434Q130 390 187 390Q222 390 246 407T270 450Q270 476 252 490T201 505H170L178 546H206Q243 546 267 563T291 606Q291 629 273 644T226 659Q205 659 183 652T132 627L110 666Q172
705 233 705Q280 705 311 680T343 614Q343 583 318 559T253 526Q284 518 301 499T319 453Q319 423 301 399T253 360T184 345ZM528 0L547 88H355L363 129L596 350H653L606 130H648L638 88H597L578 0H528ZM420 130H556L590 292L420 130ZM89 0L623 700H680L143 0H89Z"
/>
<glyph unicode="&#xbf;" horiz-adv-x="501" d="M334 496Q354 496 367 482T380 448Q380 425 363 408T322 390Q303 390 290 404T277 437Q277 453 285 466T306 487T334 496ZM329 281Q319 215 292 174T213 103L151 67Q111 42 89 10T66 -57Q66 -99 100 -126T189 -153Q233
-153 275 -132T354 -74L399 -115Q351 -165 295 -192T179 -219Q124 -219 83 -200T19 -146T-5 -66Q-5 -10 25 33T121 117L180 152Q221 175 241 205T268 281H329Z" />
<glyph unicode="&#xc0;" horiz-adv-x="647" d="M-44 0L372 700H463L585 0H508L472 220H168L41 0H-44ZM203 281H462L404 631L203 281ZM406 796L264 918H364L473 796H406Z" />
<glyph unicode="&#xc1;" horiz-adv-x="647" d="M-44 0L372 700H463L585 0H508L472 220H168L41 0H-44ZM203 281H462L404 631L203 281ZM381 796L516 918H617L451 796H381Z" />
<glyph unicode="&#xc2;" horiz-adv-x="647" d="M-44 0L372 700H463L585 0H508L472 220H168L41 0H-44ZM203 281H462L404 631L203 281ZM281 791L418 918H495L582 791H526L453 875L342 791H281Z" />
<glyph unicode="&#xc3;" horiz-adv-x="647" d="M-44 0L372 700H463L585 0H508L472 220H168L41 0H-44ZM203 281H462L404 631L203 281ZM319 797L270 812Q293 859 320 883T377 908Q400 908 419 899T455 877T487 855T518 845Q533 845 544 857T571 905L620 890Q598
843 572 819T516 794Q494 794 475 803T439 825T407 846T376 856Q359 856 346 843T319 797Z" />
<glyph unicode="&#xc4;" horiz-adv-x="647" d="M-44 0L372 700H463L585 0H508L472 220H168L41 0H-44ZM203 281H462L404 631L203 281ZM342 821Q322 821 308 834T294 868Q294 890 311 906T351 923Q371 923 385 909T399 875Q399 853 383 837T342 821ZM546 821Q526
821 512 834T498 868Q498 890 515 906T555 923Q575 923 589 909T603 875Q603 853 587 837T546 821Z" />
<glyph unicode="&#xc5;" horiz-adv-x="647" d="M-44 0L372 700H463L585 0H508L472 220H168L41 0H-44ZM203 281H462L404 631L203 281ZM446 784Q402 784 374 811T345 882Q345 915 361 943T405 988T463 1006Q508 1006 536 979T565 908Q565 875 549 847T505 802T446
784ZM446 824Q477 824 499 848T522 904Q522 930 506 947T463 965Q433 965 410 942T387 885Q387 859 404 842T446 824Z" />
<glyph unicode="&#xc6;" horiz-adv-x="900" d="M-44 0L373 700H947L933 632H481L519 387H751L736 320H530L569 68H813L799 0H505L471 220H166L37 0H-44ZM201 281H461L406 631L201 281Z" />
<glyph unicode="&#xc7;" horiz-adv-x="713" d="M345 -239Q311 -239 284 -228T239 -197L270 -167Q299 -199 343 -199Q376 -199 395 -184T415 -144Q415 -123 398 -111T351 -99H323L363 -9Q280 0 215 45T113 161T76 320Q76 400 105 470T186 595T306 679T451 710Q534
710 600 678T710 584L653 534Q621 584 567 612T447 640Q386 640 333 616T239 548T176 447T153 323Q153 247 186 187T276 93T406 58Q465 58 520 81T619 147L659 95Q604 44 538 17T404 -11L380 -66Q418 -69 439 -89T461 -138Q461 -166 446 -189T404 -225T345 -239Z"
/>
<glyph unicode="&#xc8;" horiz-adv-x="607" d="M34 0L183 700H651L636 633H244L191 387H464L450 320H177L123 67H520L506 0H34ZM402 796L260 918H360L469 796H402Z" />
<glyph unicode="&#xc9;" horiz-adv-x="607" d="M34 0L183 700H651L636 633H244L191 387H464L450 320H177L123 67H520L506 0H34ZM377 796L512 918H613L447 796H377Z" />
<glyph unicode="&#xca;" horiz-adv-x="607" d="M34 0L183 700H651L636 633H244L191 387H464L450 320H177L123 67H520L506 0H34ZM277 791L414 918H491L578 791H522L449 875L338 791H277Z" />
<glyph unicode="&#xcb;" horiz-adv-x="607" d="M34 0L183 700H651L636 633H244L191 387H464L450 320H177L123 67H520L506 0H34ZM338 821Q318 821 304 834T290 868Q290 890 307 906T347 923Q367 923 381 909T395 875Q395 853 379 837T338 821ZM542 821Q522 821
508 834T494 868Q494 890 511 906T551 923Q571 923 585 909T599 875Q599 853 583 837T542 821Z" />
<glyph unicode="&#xcc;" horiz-adv-x="247" d="M32 0L181 700H256L107 0H32ZM211 796L69 918H169L278 796H211Z" />
<glyph unicode="&#xcd;" horiz-adv-x="247" d="M32 0L181 700H256L107 0H32ZM186 796L321 918H422L256 796H186Z" />
<glyph unicode="&#xce;" horiz-adv-x="247" d="M32 0L181 700H256L107 0H32ZM86 791L223 918H300L387 791H331L258 875L147 791H86Z" />
<glyph unicode="&#xcf;" horiz-adv-x="247" d="M32 0L181 700H256L107 0H32ZM147 821Q127 821 113 834T99 868Q99 890 116 906T156 923Q176 923 190 909T204 875Q204 853 188 837T147 821ZM351 821Q331 821 317 834T303 868Q303 890 320 906T360 923Q380 923 394
909T408 875Q408 853 392 837T351 821Z" />
<glyph unicode="&#xd0;" horiz-adv-x="747" d="M64 0L133 322H38L51 383H146L213 700H412Q502 700 569 662T673 554T711 391Q711 310 681 240T597 115T473 31T321 0H64ZM154 69H332Q395 69 449 93T545 162T609 264T633 389Q633 462 605 516T527 600T409 631H273L220
383H384L371 322H208L154 69Z" />
<glyph unicode="&#xd1;" horiz-adv-x="725" d="M34 0L182 700H260L540 113L661 700H732L584 0H516L229 599L105 0H34ZM355 797L306 812Q329 859 356 883T413 908Q436 908 455 899T491 877T523 855T554 845Q569 845 580 857T607 905L656 890Q634 843 608 819T552
794Q530 794 511 803T475 825T443 846T412 856Q395 856 382 843T355 797Z" />
<glyph unicode="&#xd2;" horiz-adv-x="795" d="M392 -11Q325 -11 267 14T166 84T99 189T75 320Q75 400 104 470T183 595T300 680T442 711Q510 711 567 686T668 616T735 511T759 380Q759 300 730 230T651 105T534 20T392 -11ZM397 59Q456 59 507 84T598 152T660
253T683 376Q683 452 651 512T564 606T438 641Q379 641 327 616T236 548T174 447T151 324Q151 249 183 189T271 94T397 59ZM436 796L294 918H394L503 796H436Z" />
<glyph unicode="&#xd3;" horiz-adv-x="795" d="M392 -11Q325 -11 267 14T166 84T99 189T75 320Q75 400 104 470T183 595T300 680T442 711Q510 711 567 686T668 616T735 511T759 380Q759 300 730 230T651 105T534 20T392 -11ZM397 59Q456 59 507 84T598 152T660
253T683 376Q683 452 651 512T564 606T438 641Q379 641 327 616T236 548T174 447T151 324Q151 249 183 189T271 94T397 59ZM411 796L546 918H647L481 796H411Z" />
<glyph unicode="&#xd4;" horiz-adv-x="795" d="M392 -11Q325 -11 267 14T166 84T99 189T75 320Q75 400 104 470T183 595T300 680T442 711Q510 711 567 686T668 616T735 511T759 380Q759 300 730 230T651 105T534 20T392 -11ZM397 59Q456 59 507 84T598 152T660
253T683 376Q683 452 651 512T564 606T438 641Q379 641 327 616T236 548T174 447T151 324Q151 249 183 189T271 94T397 59ZM311 791L448 918H525L612 791H556L483 875L372 791H311Z" />
<glyph unicode="&#xd5;" horiz-adv-x="795" d="M392 -11Q325 -11 267 14T166 84T99 189T75 320Q75 400 104 470T183 595T300 680T442 711Q510 711 567 686T668 616T735 511T759 380Q759 300 730 230T651 105T534 20T392 -11ZM397 59Q456 59 507 84T598 152T660
253T683 376Q683 452 651 512T564 606T438 641Q379 641 327 616T236 548T174 447T151 324Q151 249 183 189T271 94T397 59ZM349 797L300 812Q323 859 350 883T407 908Q430 908 449 899T485 877T517 855T548 845Q563 845 574 857T601 905L650 890Q628 843 602 819T546
794Q524 794 505 803T469 825T437 846T406 856Q389 856 376 843T349 797Z" />
<glyph unicode="&#xd6;" horiz-adv-x="795" d="M392 -11Q325 -11 267 14T166 84T99 189T75 320Q75 400 104 470T183 595T300 680T442 711Q510 711 567 686T668 616T735 511T759 380Q759 300 730 230T651 105T534 20T392 -11ZM397 59Q456 59 507 84T598 152T660
253T683 376Q683 452 651 512T564 606T438 641Q379 641 327 616T236 548T174 447T151 324Q151 249 183 189T271 94T397 59ZM372 821Q352 821 338 834T324 868Q324 890 341 906T381 923Q401 923 415 909T429 875Q429 853 413 837T372 821ZM576 821Q556 821 542 834T528
868Q528 890 545 906T585 923Q605 923 619 909T633 875Q633 853 617 837T576 821Z" />
<glyph unicode="&#xd7;" horiz-adv-x="599" d="M134 161L104 202L284 359L171 516L216 555L330 399L511 557L544 516L360 357L475 200L427 161L314 317L134 161Z" />
<glyph unicode="&#xd8;" horiz-adv-x="795" d="M392 -11Q329 -11 274 11T177 73L99 -5H22L141 113Q110 155 93 208T75 320Q75 400 104 470T183 595T300 680T442 711Q506 711 561 689T657 627L736 705H814L694 586Q725 544 742 492T759 380Q759 300 730 230T651
105T534 20T392 -11ZM196 168L604 574Q572 606 530 623T438 641Q379 641 327 616T236 548T174 447T151 324Q151 235 196 168ZM397 59Q456 59 507 84T598 152T660 253T683 376Q683 420 672 460T639 532L230 125Q262 94 305 77T397 59Z" />
<glyph unicode="&#xd9;" horiz-adv-x="698" d="M322 -11Q232 -11 172 29T89 140T85 303L169 700H245L159 299Q144 229 160 175T219 90T325 59Q411 59 472 121T557 293L644 700H719L631 289Q611 193 568 126T463 24T322 -11ZM430 796L288 918H388L497 796H430Z" />
<glyph unicode="&#xda;" horiz-adv-x="698" d="M322 -11Q232 -11 172 29T89 140T85 303L169 700H245L159 299Q144 229 160 175T219 90T325 59Q411 59 472 121T557 293L644 700H719L631 289Q611 193 568 126T463 24T322 -11ZM405 796L540 918H641L475 796H405Z" />
<glyph unicode="&#xdb;" horiz-adv-x="698" d="M322 -11Q232 -11 172 29T89 140T85 303L169 700H245L159 299Q144 229 160 175T219 90T325 59Q411 59 472 121T557 293L644 700H719L631 289Q611 193 568 126T463 24T322 -11ZM305 791L442 918H519L606 791H550L477
875L366 791H305Z" />
<glyph unicode="&#xdc;" horiz-adv-x="698" d="M322 -11Q232 -11 172 29T89 140T85 303L169 700H245L159 299Q144 229 160 175T219 90T325 59Q411 59 472 121T557 293L644 700H719L631 289Q611 193 568 126T463 24T322 -11ZM366 821Q346 821 332 834T318 868Q318
890 335 906T375 923Q395 923 409 909T423 875Q423 853 407 837T366 821ZM570 821Q550 821 536 834T522 868Q522 890 539 906T579 923Q599 923 613 909T627 875Q627 853 611 837T570 821Z" />
<glyph unicode="&#xdd;" horiz-adv-x="633" d="M224 0L285 287L107 700H187L334 353L627 700H717L360 283L300 0H224ZM366 796L501 918H602L436 796H366Z" />
<glyph unicode="&#xde;" horiz-adv-x="650" d="M34 0L183 700H258L227 553H407Q475 553 521 533T590 475T614 381Q614 312 583 261T494 181T359 152H141L109 0H34ZM155 217H358Q416 217 456 235T517 290T539 376Q539 432 504 458T396 485H212L155 217Z" />
<glyph unicode="&#xdf;" horiz-adv-x="620" d="M394 -12Q336 -12 290 10T209 75L257 118Q281 83 316 65T395 46Q444 46 473 72T503 141Q503 168 486 187T426 225L360 254Q289 287 289 351Q289 388 305 411T346 451T400 480T453 508T495 545T511 601Q511 629 494
651T448 687T384 701Q310 701 263 657T198 527L90 0H20L128 533Q150 644 217 704T386 765Q443 765 487 745T557 688T582 603Q582 560 566 532T525 484T471 452T417 426T375 399T359 361Q359 344 369 331T402 307L466 276Q521 251 545 220T570 146Q570 101 547 65T485
9T394 -12Z" />
<glyph unicode="&#xe0;" horiz-adv-x="516" d="M191 -7Q118 -7 74 30T29 130Q29 177 52 212T118 267T216 287Q263 287 304 275T377 240L390 299Q405 367 377 401T279 435Q249 435 216 427T139 398L119 455Q167 475 209 485T292 495Q358 495 400 472T458 407T462
305L394 0H323L333 46Q299 19 264 6T191 -7ZM212 48Q248 48 280 60T345 98L366 191Q338 213 303 223T223 233Q168 233 133 206T98 138Q98 95 128 72T212 48ZM543 584L401 706H501L610 584H543Z" />
<glyph unicode="&#xe1;" horiz-adv-x="516" d="M191 -7Q118 -7 74 30T29 130Q29 177 52 212T118 267T216 287Q263 287 304 275T377 240L390 299Q405 367 377 401T279 435Q249 435 216 427T139 398L119 455Q167 475 209 485T292 495Q358 495 400 472T458 407T462
305L394 0H323L333 46Q299 19 264 6T191 -7ZM212 48Q248 48 280 60T345 98L366 191Q338 213 303 223T223 233Q168 233 133 206T98 138Q98 95 128 72T212 48ZM518 584L653 706H754L588 584H518Z" />
<glyph unicode="&#xe2;" horiz-adv-x="516" d="M191 -7Q118 -7 74 30T29 130Q29 177 52 212T118 267T216 287Q263 287 304 275T377 240L390 299Q405 367 377 401T279 435Q249 435 216 427T139 398L119 455Q167 475 209 485T292 495Q358 495 400 472T458 407T462
305L394 0H323L333 46Q299 19 264 6T191 -7ZM212 48Q248 48 280 60T345 98L366 191Q338 213 303 223T223 233Q168 233 133 206T98 138Q98 95 128 72T212 48ZM418 579L555 706H632L719 579H663L590 663L479 579H418Z" />
<glyph unicode="&#xe3;" horiz-adv-x="516" d="M191 -7Q118 -7 74 30T29 130Q29 177 52 212T118 267T216 287Q263 287 304 275T377 240L390 299Q405 367 377 401T279 435Q249 435 216 427T139 398L119 455Q167 475 209 485T292 495Q358 495 400 472T458 407T462
305L394 0H323L333 46Q299 19 264 6T191 -7ZM212 48Q248 48 280 60T345 98L366 191Q338 213 303 223T223 233Q168 233 133 206T98 138Q98 95 128 72T212 48ZM456 585L407 600Q430 647 457 671T514 696Q537 696 556 687T592 665T624 643T655 633Q670 633 681 645T708
693L757 678Q735 631 709 607T653 582Q631 582 612 591T576 613T544 634T513 644Q496 644 483 631T456 585Z" />
<glyph unicode="&#xe4;" horiz-adv-x="516" d="M191 -7Q118 -7 74 30T29 130Q29 177 52 212T118 267T216 287Q263 287 304 275T377 240L390 299Q405 367 377 401T279 435Q249 435 216 427T139 398L119 455Q167 475 209 485T292 495Q358 495 400 472T458 407T462
305L394 0H323L333 46Q299 19 264 6T191 -7ZM212 48Q248 48 280 60T345 98L366 191Q338 213 303 223T223 233Q168 233 133 206T98 138Q98 95 128 72T212 48ZM479 609Q459 609 445 622T431 656Q431 678 448 694T488 711Q508 711 522 697T536 663Q536 641 520 625T479
609ZM683 609Q663 609 649 622T635 656Q635 678 652 694T692 711Q712 711 726 697T740 663Q740 641 724 625T683 609Z" />
<glyph unicode="&#xe5;" horiz-adv-x="516" d="M191 -7Q118 -7 74 30T29 130Q29 177 52 212T118 267T216 287Q263 287 304 275T377 240L390 299Q405 367 377 401T279 435Q249 435 216 427T139 398L119 455Q167 475 209 485T292 495Q358 495 400 472T458 407T462
305L394 0H323L333 46Q299 19 264 6T191 -7ZM212 48Q248 48 280 60T345 98L366 191Q338 213 303 223T223 233Q168 233 133 206T98 138Q98 95 128 72T212 48ZM583 572Q539 572 511 599T482 670Q482 703 498 731T542 776T600 794Q645 794 673 767T702 696Q702 663
686 635T642 590T583 572ZM583 612Q614 612 636 636T659 692Q659 718 643 735T600 753Q570 753 547 730T524 673Q524 647 541 630T583 612Z" />
<glyph unicode="&#xe6;" horiz-adv-x="851" d="M201 -7Q127 -7 82 31T36 131Q36 178 59 213T123 267T220 287Q301 287 364 251L372 301Q384 368 357 401T262 435Q232 435 199 427T122 398L102 455Q152 475 194 485T276 495Q337 495 376 473T432 410Q467 451 514
473T613 496Q670 496 714 469T783 393T808 281Q808 268 808 255T805 228H431Q429 180 449 141T505 78T587 54Q622 54 656 65T715 97L753 45Q711 17 670 4T584 -9Q525 -9 478 14T401 80Q355 36 306 15T201 -7ZM438 280H740Q741 323 724 357T676 412T608 432Q568
432 533 413T474 359T438 280ZM218 48Q260 48 300 66T379 120Q364 156 361 198Q307 233 227 233Q173 233 139 207T104 138Q104 95 134 72T218 48Z" />
<glyph unicode="&#xe7;" horiz-adv-x="497" d="M209 -239Q175 -239 148 -228T103 -197L134 -167Q163 -199 207 -199Q240 -199 259 -184T279 -144Q279 -123 262 -111T215 -99H187L228 -7Q176 1 136 30T74 106T51 210Q51 268 72 319T129 410T214 471T316 494Q371
494 421 469T499 401L445 356Q422 391 388 409T313 428Q262 428 219 399T149 321T122 214Q122 169 142 133T196 76T272 55Q308 55 342 68T404 103L438 56Q401 25 358 9T269 -9L244 -66Q282 -70 303 -88T325 -138Q325 -166 310 -189T268 -225T209 -239Z" />
<glyph unicode="&#xe8;" horiz-adv-x="545" d="M273 -9Q208 -9 158 19T79 99T51 216Q51 274 70 324T124 413T204 474T302 496Q359 496 403 469T472 393T498 281Q498 268 498 255T495 228H121Q119 180 138 141T194 78T276 54Q311 54 345 65T405 97L443 45Q400 17
359 4T273 -9ZM128 280H430Q431 323 414 357T366 411T297 432Q257 432 223 413T164 359T128 280ZM548 584L406 706H506L615 584H548Z" />
<glyph unicode="&#xe9;" horiz-adv-x="545" d="M273 -9Q208 -9 158 19T79 99T51 216Q51 274 70 324T124 413T204 474T302 496Q359 496 403 469T472 393T498 281Q498 268 498 255T495 228H121Q119 180 138 141T194 78T276 54Q311 54 345 65T405 97L443 45Q400 17
359 4T273 -9ZM128 280H430Q431 323 414 357T366 411T297 432Q257 432 223 413T164 359T128 280ZM523 584L658 706H759L593 584H523Z" />
<glyph unicode="&#xea;" horiz-adv-x="545" d="M273 -9Q208 -9 158 19T79 99T51 216Q51 274 70 324T124 413T204 474T302 496Q359 496 403 469T472 393T498 281Q498 268 498 255T495 228H121Q119 180 138 141T194 78T276 54Q311 54 345 65T405 97L443 45Q400 17
359 4T273 -9ZM128 280H430Q431 323 414 357T366 411T297 432Q257 432 223 413T164 359T128 280ZM423 579L560 706H637L724 579H668L595 663L484 579H423Z" />
<glyph unicode="&#xeb;" horiz-adv-x="545" d="M273 -9Q208 -9 158 19T79 99T51 216Q51 274 70 324T124 413T204 474T302 496Q359 496 403 469T472 393T498 281Q498 268 498 255T495 228H121Q119 180 138 141T194 78T276 54Q311 54 345 65T405 97L443 45Q400 17
359 4T273 -9ZM128 280H430Q431 323 414 357T366 411T297 432Q257 432 223 413T164 359T128 280ZM484 609Q464 609 450 622T436 656Q436 678 453 694T493 711Q513 711 527 697T541 663Q541 641 525 625T484 609ZM688 609Q668 609 654 622T640 656Q640 678 657 694T697
711Q717 711 731 697T745 663Q745 641 729 625T688 609Z" />
<glyph unicode="&#xec;" horiz-adv-x="220" d="M21 0L128 488H199L93 0H21ZM155 584L13 706H113L222 584H155Z" />
<glyph unicode="&#xed;" horiz-adv-x="220" d="M21 0L128 488H199L93 0H21ZM130 584L265 706H366L200 584H130Z" />
<glyph unicode="&#xee;" horiz-adv-x="220" d="M21 0L128 488H199L93 0H21ZM30 579L167 706H244L331 579H275L202 663L91 579H30Z" />
<glyph unicode="&#xef;" horiz-adv-x="220" d="M21 0L128 488H199L93 0H21ZM91 609Q71 609 57 622T43 656Q43 678 60 694T100 711Q120 711 134 697T148 663Q148 641 132 625T91 609ZM295 609Q275 609 261 622T247 656Q247 678 264 694T304 711Q324 711 338 697T352
663Q352 641 336 625T295 609Z" />
<glyph unicode="&#xf0;" horiz-adv-x="578" d="M260 -10Q199 -10 152 18T79 95T52 208Q52 284 84 345T173 442T297 478Q365 478 414 442T479 350Q483 420 469 480T422 587L316 535L298 581L390 626Q371 645 350 660T302 687L341 737Q373 721 400 701T449 655L565
711L582 666L480 615Q542 520 542 385Q542 298 522 226T463 100T374 19T260 -10ZM264 54Q314 54 356 83T424 159T450 261Q450 307 431 342T379 398T304 419Q254 419 212 391T145 316T120 213Q120 166 138 130T189 74T264 54Z" />
<glyph unicode="&#xf1;" horiz-adv-x="542" d="M21 0L128 488H199L184 417Q216 456 255 475T337 495Q392 495 429 470T480 401T482 300L418 0H346L408 285Q423 353 395 394T306 435Q269 435 235 418T173 367L93 0H21ZM481 585L432 600Q455 647 482 671T539 696Q562
696 581 687T617 665T649 643T680 633Q695 633 706 645T733 693L782 678Q760 631 734 607T678 582Q656 582 637 591T601 613T569 634T538 644Q521 644 508 631T481 585Z" />
<glyph unicode="&#xf2;" horiz-adv-x="570" d="M261 -10Q200 -10 153 19T78 100T51 218Q51 276 71 326T126 415T207 475T307 497Q370 497 417 468T491 388T518 269Q518 212 498 162T443 73T361 12T261 -10ZM265 55Q316 55 357 83T422 161T446 269Q446 342 407
387T304 433Q253 433 212 404T147 327T122 219Q122 146 161 101T265 55ZM557 584L415 706H515L624 584H557Z" />
<glyph unicode="&#xf3;" horiz-adv-x="570" d="M261 -10Q200 -10 153 19T78 100T51 218Q51 276 71 326T126 415T207 475T307 497Q370 497 417 468T491 388T518 269Q518 212 498 162T443 73T361 12T261 -10ZM265 55Q316 55 357 83T422 161T446 269Q446 342 407
387T304 433Q253 433 212 404T147 327T122 219Q122 146 161 101T265 55ZM532 584L667 706H768L602 584H532Z" />
<glyph unicode="&#xf4;" horiz-adv-x="570" d="M261 -10Q200 -10 153 19T78 100T51 218Q51 276 71 326T126 415T207 475T307 497Q370 497 417 468T491 388T518 269Q518 212 498 162T443 73T361 12T261 -10ZM265 55Q316 55 357 83T422 161T446 269Q446 342 407
387T304 433Q253 433 212 404T147 327T122 219Q122 146 161 101T265 55ZM432 579L569 706H646L733 579H677L604 663L493 579H432Z" />
<glyph unicode="&#xf5;" horiz-adv-x="570" d="M261 -10Q200 -10 153 19T78 100T51 218Q51 276 71 326T126 415T207 475T307 497Q370 497 417 468T491 388T518 269Q518 212 498 162T443 73T361 12T261 -10ZM265 55Q316 55 357 83T422 161T446 269Q446 342 407
387T304 433Q253 433 212 404T147 327T122 219Q122 146 161 101T265 55ZM470 585L421 600Q444 647 471 671T528 696Q551 696 570 687T606 665T638 643T669 633Q684 633 695 645T722 693L771 678Q749 631 723 607T667 582Q645 582 626 591T590 613T558 634T527 644Q510
644 497 631T470 585Z" />
<glyph unicode="&#xf6;" horiz-adv-x="570" d="M261 -10Q200 -10 153 19T78 100T51 218Q51 276 71 326T126 415T207 475T307 497Q370 497 417 468T491 388T518 269Q518 212 498 162T443 73T361 12T261 -10ZM265 55Q316 55 357 83T422 161T446 269Q446 342 407
387T304 433Q253 433 212 404T147 327T122 219Q122 146 161 101T265 55ZM493 609Q473 609 459 622T445 656Q445 678 462 694T502 711Q522 711 536 697T550 663Q550 641 534 625T493 609ZM697 609Q677 609 663 622T649 656Q649 678 666 694T706 711Q726 711 740
697T754 663Q754 641 738 625T697 609Z" />
<glyph unicode="&#xf7;" horiz-adv-x="599" d="M120 327L133 387H527L514 327H120ZM281 121Q260 121 246 135T231 170Q231 193 249 210T290 227Q310 227 324 213T339 177Q339 155 322 138T281 121ZM359 489Q338 489 324 503T309 538Q309 561 327 578T368 595Q388
595 402 581T417 545Q417 523 400 506T359 489Z" />
<glyph unicode="&#xf8;" horiz-adv-x="570" d="M261 -10Q218 -10 182 4T119 46L68 -5H3L89 81Q71 109 61 143T51 218Q51 276 71 326T126 415T207 475T307 497Q351 497 387 483T451 442L502 493H568L481 406Q499 378 508 344T518 269Q518 212 498 162T443 73T361
12T261 -10ZM141 132L402 393Q383 412 359 422T304 433Q253 433 212 404T147 327T122 219Q122 194 127 173T141 132ZM265 55Q316 55 357 83T422 161T446 269Q446 293 442 314T428 354L168 94Q205 55 265 55Z" />
<glyph unicode="&#xf9;" horiz-adv-x="541" d="M203 -7Q149 -7 112 18T61 88T58 189L123 488H195L132 203Q117 136 145 95T234 53Q272 53 305 70T367 121L447 488H519L413 0H341L356 70Q323 32 285 13T203 -7ZM559 584L417 706H517L626 584H559Z" />
<glyph unicode="&#xfa;" horiz-adv-x="541" d="M203 -7Q149 -7 112 18T61 88T58 189L123 488H195L132 203Q117 136 145 95T234 53Q272 53 305 70T367 121L447 488H519L413 0H341L356 70Q323 32 285 13T203 -7ZM534 584L669 706H770L604 584H534Z" />
<glyph unicode="&#xfb;" horiz-adv-x="541" d="M203 -7Q149 -7 112 18T61 88T58 189L123 488H195L132 203Q117 136 145 95T234 53Q272 53 305 70T367 121L447 488H519L413 0H341L356 70Q323 32 285 13T203 -7ZM434 579L571 706H648L735 579H679L606 663L495 579H434Z" />
<glyph unicode="&#xfc;" horiz-adv-x="541" d="M203 -7Q149 -7 112 18T61 88T58 189L123 488H195L132 203Q117 136 145 95T234 53Q272 53 305 70T367 121L447 488H519L413 0H341L356 70Q323 32 285 13T203 -7ZM495 609Q475 609 461 622T447 656Q447 678 464 694T504
711Q524 711 538 697T552 663Q552 641 536 625T495 609ZM699 609Q679 609 665 622T651 656Q651 678 668 694T708 711Q728 711 742 697T756 663Q756 641 740 625T699 609Z" />
<glyph unicode="&#xfd;" horiz-adv-x="489" d="M11 -219Q0 -219 -13 -217T-44 -209L-31 -144Q-17 -147 -7 -148T10 -150Q39 -150 60 -137T100 -93L152 -5L68 488H144L207 84L445 488H526L166 -117Q133 -172 97 -195T11 -219ZM509 584L644 706H745L579 584H509Z" />
<glyph unicode="&#xfe;" horiz-adv-x="571" d="M-23 -209L172 722L246 737L182 432Q242 492 325 492Q381 492 425 463T494 385T520 271Q520 214 500 164T446 75T365 14T267 -8Q160 -8 109 77L49 -209H-23ZM299 430Q226 430 171 375L121 137Q139 101 177 79T258
56Q312 56 355 84T423 159T449 265Q449 339 408 384T299 430Z" />
<glyph unicode="&#xff;" horiz-adv-x="489" d="M11 -219Q0 -219 -13 -217T-44 -209L-31 -144Q-17 -147 -7 -148T10 -150Q39 -150 60 -137T100 -93L152 -5L68 488H144L207 84L445 488H526L166 -117Q133 -172 97 -195T11 -219ZM470 609Q450 609 436 622T422 656Q422
678 439 694T479 711Q499 711 513 697T527 663Q527 641 511 625T470 609ZM674 609Q654 609 640 622T626 656Q626 678 643 694T683 711Q703 711 717 697T731 663Q731 641 715 625T674 609Z" />
<glyph unicode="&#x2013;" horiz-adv-x="540" d="M59 250L74 313H492L478 250H59Z" />
<glyph unicode="&#x2014;" horiz-adv-x="679" d="M59 250L74 313H632L617 250H59Z" />
<glyph unicode="&#x2018;" horiz-adv-x="250" d="M311 750L207 519H129L254 750H311Z" />
<glyph unicode="&#x2019;" horiz-adv-x="250" d="M126 519L230 750H308L183 519H126Z" />
<glyph unicode="&#x201a;" horiz-adv-x="250" d="M-39 -157L65 74H143L18 -157H-39Z" />
<glyph unicode="&#x201c;" horiz-adv-x="409" d="M311 750L207 519H129L254 750H311ZM470 750L366 519H288L413 750H470Z" />
<glyph unicode="&#x201d;" horiz-adv-x="410" d="M286 519L390 750H468L343 519H286ZM126 519L230 750H308L183 519H126Z" />
<glyph unicode="&#x201e;" horiz-adv-x="413" d="M124 -157L228 74H306L181 -157H124ZM-39 -157L65 74H143L18 -157H-39Z" />
<glyph unicode="&#x2022;" horiz-adv-x="336" d="M178 254Q141 254 116 279T91 342Q91 372 106 397T146 438T200 454Q237 454 261 429T286 367Q286 337 271 311T232 270T178 254Z" />
<glyph unicode="&#x2039;" horiz-adv-x="393" d="M208 0L43 245L315 488H393L123 241L283 0H208Z" />
<glyph unicode="&#x203a;" horiz-adv-x="401" d="M193 488L358 243L86 0H8L278 247L118 488H193Z" />
</font>
</defs>
</svg>
